Skip to main content

Subdudes Live at Ram's Head Onstage on 2003-05-31

Audio Preview

etree
Subdudes Live at Ram's Head Onstage on 2003-05-31




the subdudes
May 31, 2003 - early show
Ram's Head Onstage
Annapolis MD

*** THIS IS A 16-BIT FILESET INTENDED FOR AUDIO CD ***

SOURCE: dpa 4061 (table 501, seat 1) > coresound battery box > sony tcd-d8 (16/48)
PROCESSING: archive python DDS > dat2wav 1.3 > soundforge 9.0 (tracking, fades, resample) > flac 1.2.1b

01
02
03
04
05
06
07
08
09
10
11
12
13
14
15
16
17


Collection Subdudes
Band/Artist Subdudes
Venue Ram's Head Onstage
Location Annapolis MD

Source dpa 4061 > coresound battery box > sony tcd-d8
Lineage archive python DDS > dat2wav 1.3 > soundforge 9.0 (tracking, fades, resample) > flac 1.2.1b
Taped by Scott Pendleton
Transferred by Peter W. King

Notes

length expanded size cdr WAVE problems fmt ratio filename
7:22.37 78055868 B --- -- ---xx flac 0.4760 subdudes2003-05-31a_4061_t01.flac
4:26.07 46938908 B --- -- ---xx flac 0.5390 subdudes2003-05-31a_4061_t02.flac
5:35.60 59235164 B --- -- ---xx flac 0.5142 subdudes2003-05-31a_4061_t03.flac
4:56.08 52233260 B --- -- ---xx flac 0.4123 subdudes2003-05-31a_4061_t04.flac
5:27.22 57734588 B --- -- ---xx flac 0.4644 subdudes2003-05-31a_4061_t05.flac
6:25.53 68038700 B --- -- ---xx flac 0.3980 subdudes2003-05-31a_4061_t06.flac
4:10.15 44135324 B --- -- ---xx flac 0.4507 subdudes2003-05-31a_4061_t07.flac
6:31.52 69094748 B --- -- ---xx flac 0.4811 subdudes2003-05-31a_4061_t08.flac
5:36.53 59395100 B --- -- ---xx flac 0.4748 subdudes2003-05-31a_4061_t09.flac
5:33.45 58847084 B --- -- ---xx flac 0.4602 subdudes2003-05-31a_4061_t10.flac
6:16.07 66342908 B --- -- ---xx flac 0.4869 subdudes2003-05-31a_4061_t11.flac
4:56.15 52249724 B --- -- ---xx flac 0.3975 subdudes2003-05-31a_4061_t12.flac
5:37.00 59446844 B --- -- ---xx flac 0.5114 subdudes2003-05-31a_4061_t13.flac
7:55.23 83844140 B --- -- ---xx flac 0.4843 subdudes2003-05-31a_4061_t14.flac
5:04.37 53712668 B --- -- ---xx flac 0.3763 subdudes2003-05-31a_4061_t15.flac
4:29.08 47470460 B --- -- ---xx flac 0.4594 subdudes2003-05-31a_4061_t16.flac
11:24.45 120763484 B --- -- ---xx flac 0.5043 subdudes2003-05-31a_4061_t17.flac
101:48.37 1077538972 B 0.4675 (17 files)

comment
Reviews

There are no reviews yet. Be the first one to write a review.
DOWNLOAD OPTIONS
In Collection
Subdudes
In Collection
Live Music Archive
Uploaded by
peterwking
on 8/13/2011
Views
2,320
SIMILAR ITEMS (based on metadata)
eye
Title
Date Archived
Creator
Subdudes
by Subdudes
etree
eye 3,520
favorite 0
comment 0
Source: SBD->DAT
Subdudes
by Subdudes
etree
eye 3,145
favorite 0
comment 0
Source: soundboard + audience matrix
Subdudes
by Subdudes
etree
eye 116
favorite 1
comment 0
Source: soundboard > 48kHz DAT
Subdudes
by Subdudes
etree
eye 3,221
favorite 0
comment 1
( 1 reviews )
Source: Senn 441's (5th row balcony center) > Tascam HDP2 [16 bit]
Subdudes
by Subdudes
etree
eye 3,661
favorite 1
comment 0
Source: Soundboard > Tascam DAP-1 DAT
Subdudes
by Subdudes
etree
eye 2,590
favorite 0
comment 0
Source: AKG c414s+SBD
Subdudes
by Subdudes
etree
eye 149
favorite 0
comment 0
Source: mics > DAT (details not known)
Subdudes
by Subdudes
etree
eye 3,415
favorite 0
comment 0
Source: Senn 441's->DAT
Subdudes
by Subdudes
etree
eye 4,689
favorite 0
comment 1
favoritefavoritefavoritefavoritefavorite ( 1 reviews )
Source: Studio Projects C4 (cardiods/ORTF)> Edirol R-09 (24 bit/48kHz)
Subdudes
by Subdudes
etree
eye 3,876
favorite 3
comment 2
favoritefavoritefavoritefavoritefavorite ( 2 reviews )
Source: soundboard > Dennon DTR-80 Dat